العودة   منتديات سحرني > ¬ | مملڪَةَ ســحرنـي الادارة ✿ ، > سله المحذوفات | Trash


Roadkill 2011 DVDRiP XviD-SiC

Movie Info -- كود: File Info : -- اقتباس: Roadkill.2011.DVDRiP.XviD-SiC Note: More Maneater/SyFy goodies. This one is actually pretty decent... if you can forgive the terribly rendered computer

إضافة رد
 
LinkBack أدوات الموضوع انواع عرض الموضوع
  #1  
قديم 01 - 08 - 2011, 16:10
Senior Member
 
تاريخ الإنضمام: 02 - 11 - 2010
رقم العضوية: 40348
المشاركات: 681,887
قوة السمعة : تحدي is on a distinguished road
نقاط التقييم : 10
المشاهدات: 119 | التعليقات: 0 افتراضي Roadkill 2011 DVDRiP XviD-SiC

Roadkill 2011 DVDRiP XviD-SiC 23884489135101781303



Movie Info
--
كود:
http://www.imdb.com/title/tt1637713/

File Info :
--
اقتباس:

Roadkill.2011.DVDRiP.XviD-SiC

Note:
More Maneater/SyFy goodies. This one is actually pretty decent...
if you can forgive the terribly rendered computer animated bird.


Plot:
Six young friends on a road trip in Ireland run afoul of gypsies who curse them for
accidentally running down an old woman. The curse takes the form of a terrifying
flying beast that tries killing them all.


MediaInfo:
General
Complete name : Roadkill.2011.DVDRiP.XviD-SiC.avi
Format : AVI
Format/Info : Audio Video Interleave
File size : 1.33 GiB
Duration : 1h 28mn
Overall bit rate : 2 154 Kbps

Video
ID : 0
Format : MPEG-4 Visual
Format profile : Advanced Simple@L5
Format settings, BVOP : 1
Format settings, QPel : No
Format settings, GMC : No warppoints
Format settings, Matrix : Default (H.263)
Codec ID : XVID
Codec ID/Hint : XviD
Duration : 1h 28mn
Bit rate : 1 698 Kbps
Width : 720 pixels
Height : 480 pixels
Display aspect ratio : 16:9
Frame rate : 23.976 fps
Standard : NTSC
Color space : YUV
Chroma subsampling : 4:2:0
Bit depth : 8 bits
Scan type : Progressive
Compression mode : Lossy
Bits/(Pixel*Frame) : 0.205
Stream size : 1.05 GiB (79%)
Writing library : XviD 1.2.1 (UTC 2008-12-04)

Audio
ID : 1
Format : AC-3
Format/Info : Audio Coding 3
Mode extension : CM (complete main)
Codec ID : 2000
Duration : 1h 28mn
Bit rate mode : Constant
Bit rate : 448 Kbps
Channel(s) : 6 channels
Channel positions : Front: L C R, Side: L R, LFE
Sampling rate : 48.0 KHz
Bit depth : 16 bits
Compression mode : Lossy
Stream size : 282 MiB (21%)
Alignment : Aligned on interleaves
Interleave, duration : 64 ms (1.53 video frames)
Interleave, preload duration : 192 ms
Title : VTS_01_1 T80 3_2ch 448Kbps DELAY 0ms

Encoder: thefuzz

Enjoy!




Check Screenshot :
--
Roadkill 2011 DVDRiP XviD-SiC roadkidxd.jpg





Single Extraction - No Password - My Upload - Download & Enjoy.!!



كود:
http://www.fileserve.com/file/Y94uK4y
--
Or
--
http://www.filesonic.com/file/1568777134


Roadkill 2011 DVDRiP XviD-SiC


رد مع اقتباس
إضافة رد

مواقع النشر (المفضلة)

أدوات الموضوع
انواع عرض الموضوع

تعليمات المشاركة
لا تستطيع إضافة مواضيع جديدة
لا تستطيع الرد على المواضيع
لا تستطيع إرفاق ملفات
لا تستطيع تعديل مشاركاتك

BB code is متاحة
كود [IMG] متاحة
كود HTML معطلة
Trackbacks are متاحة
Pingbacks are متاحة
Refbacks are متاحة


المواضيع المتشابهه
الموضوع كاتب الموضوع المنتدى المشاركات آخر مشاركة
رمزيات زواج بلاك بيري وايفون 2012 2013 - صور خلفيات رمزيات مسن ايفون بلاك بيري زواج 2013 2012 - صور رمزيه بنات بلبس الزواج للبلاك بيري 2012 2013 ℓ α ν ε и d з я ❥ سله المحذوفات | Trash 2 11 - 06 - 2012 20:58
حرف القصيد تحدي سله المحذوفات | Trash 0 02 - 04 - 2011 23:50
أزياء للفنانه اليسا....أجمل فساتين لاليسا تحدي سله المحذوفات | Trash 0 02 - 03 - 2011 00:50
هكتور يريح كماتشو ويستعيد الشهيل وتفاريس تحدي سله المحذوفات | Trash 0 28 - 02 - 2011 23:20
فنادق مكة بأرخص الأسعار تحدي سله المحذوفات | Trash 0 23 - 02 - 2011 20:20


جميع الأوقات بتوقيت GMT +3. الساعة الآن 14:54 .


Powered by vBulletin® Version 3.8.8
Copyright ©2000 - 2015, Jelsoft Enterprises Ltd.
SEO by vBSEO 3.6.1 ©2011, Crawlability, Inc.
Saudi Sa Inc Advertising Management v2.0
Server Manager By : Saudi Sa Group Inc ©2004 - 2015
Search Engine Friendly By : Saudi Sa Inc ©2004 - 2015
Support By : Saudi Sa Inc ©2004 - 2015